IPB
Для читателей: поддержка сайта, к сожалению, требует не только сил и энергии, но и денег.
Если у Вас, вдруг, где-то завалялось немного лишних денег - поддержите портал







Здравствуйте, гость ( Вход | Регистрация )

 
Ответ в темуСоздание новой темы
> Там Америки нет - Серые стены тюрьмы 2005, Lossless
Tomas Pisces
Сообщение #1


Пишу, но редко
Иконки Групп

Группа: Модератор
Сообщений: 164
Регистрация: 19 Сентября 2005
Из: Israel

 Израиль 

Пользователь №: 313
Спасибо сказали: 174 раз(а)




(IMG:http://s51.radikal.ru/i131/0908/ea/5654bba3eca4.jpg)

Исполнитель Там Америки нет
Альбом Серые стены тюрьмы 2005
Жанр Шансон
Содержание
01. Жизнь
02. Папиросники
03. Наган
04. Мальчишка
05. Серые стены тюрьмы
06. Менялы
07. Танго
08. Школа
09. Я с тобою
10. По бездорожью
11. Дорога
12. Нищий
13. Девочка и сигарета
14. Имена погибших

Добавлена опция для восстановления 3%
EAC, FLAC, CUE, LOG


(IMG:http://s61.radikal.ru/i171/0901/97/184ae46bc63c.gif)

Ссылка и пароль:
Для просмотра этого блока необходима регистрация


Цитата
Exact Audio Copy V0.99 prebeta 5 from 4. May 2009

Отчёт EAC об извлечении, выполненном 22. августа 2009, 19:26

ТАМ АМЕРИКИ НЕТ / Серые стены тюрьмы

Дисковод: TSSTcorpCDDVDW SH-S223F Adapter: 2 ID: 0

Режим чтения : Достоверность
Использование точного потока : Да
Отключение кэша аудио : Да
Использование указателей C2 : Нет

Коррекция смещения при чтении : 6
Способность читать области Lead-in и Lead-out : Нет
Заполнение пропущенных сэмплов тишиной : Да
Удаление блоков с тишиной в начале и конце : Нет
При вычислениях CRC использовались нулевые сэмплы : Да
Интерфейс : Встроенный Win32-интерфейс для Win NT/2000

Выходной формат : Внутренние WAV-операции
Формат сэмплов : 44.100 Гц; 16 бит; стерео


TOC извлечённого CD

Трек | Старт | Длительность | Начальный сектор | Конечный сектор
---------------------------------------------------------------------
1 | 0:00.00 | 3:55.74 | 0 | 17698
2 | 3:55.74 | 1:44.06 | 17699 | 25504
3 | 5:40.05 | 3:16.03 | 25505 | 40207
4 | 8:56.08 | 2:39.19 | 40208 | 52151
5 | 11:35.27 | 4:16.60 | 52152 | 71411
6 | 15:52.12 | 3:16.30 | 71412 | 86141
7 | 19:08.42 | 3:29.11 | 86142 | 101827
8 | 22:37.53 | 4:12.23 | 101828 | 120750
9 | 26:50.01 | 3:32.16 | 120751 | 136666
10 | 30:22.17 | 3:43.03 | 136667 | 153394
11 | 34:05.20 | 3:32.56 | 153395 | 169350
12 | 37:38.01 | 6:13.17 | 169351 | 197342
13 | 43:51.18 | 3:52.17 | 197343 | 214759
14 | 47:43.35 | 4:08.21 | 214760 | 233380


Характеристики диапазона извлечения и сообщения об ошибках

Выбранный диапазон

Имя файла C:\Documents and Settings\Vladimir\Рабочий стол\Там Америки нет - Серые стены тюрьмы 2005\ТАМ АМЕРИКИ НЕТ - Серые стены тюрьмы.wav

Пиковый уровень 99.9 %
Качество диапазона 99.9 %
CRC копии E6F3A621
Копирование... OK

Ошибок не произошло

Конец отчёта




Спасибо сказали:
К началу страницы
 
+Цитировать сообщение

Ответ в темуСоздание новой темы
1 чел. читают эту тему (гостей: 1, скрытых пользователей: 0)
Пользователей: 0

 

Текстовая версия Сейчас: Пон, 21 Октября 2019, 10:55


 
AiwanВs emoticons KOLOBOK-Style
Russian America Top. Рейтинг ресурсов Русской Америки.
Рейтинг Новостей Америки
Ozon.ru