IPB
Для читателей: поддержка сайта, к сожалению, требует не только сил и энергии, но и денег.
Если у Вас, вдруг, где-то завалялось немного лишних денег - поддержите портал







Здравствуйте, гость ( Вход | Регистрация )

История благодарностей участнику Tomas ::: Спасибо сказали: 174 раз(а)
Дата поста: В теме: За сообщение: Спасибо сказали:
Среда, 12 Августа 2009, 12:45 Роман Булгачёв - Колёсики 1995


Исполнитель Роман Булгачёв
Альбом Колёсики 1995
Жанр Шансон
Содержание
01. Фраер
02. Вы не были в Одессе
03. Дождь идёт в Одессе
04. Вот что интересно
05. У поручика Ежова
06. Я люблю Вас, Киев
07. Каприз
08. Извозчик
09. Если думать много
10. Я удачей меченный
11. Я обращаюсь к этой осени на "Вы"
12. Колесики
13. У мента Аркадия

Формат mp3
Качество 320Kbps
Размер 97Mb
Релиз ot Tomas




Ссылка и пароль:
Для просмотра этого блока необходима регистрация
Ирена,
Среда, 12 Августа 2009, 12:20 Роман Булгачёв - Билет на Жмеринку 1990


Исполнитель Роман Булгачёв
Альбом Билет на Жмеринку 1990
Жанр Шансон
Содержание
01. Из окон булочной
02. Без водки
03. Инопланетяне
04. Извозчик
05. Он фрайер
06. В Одессе тетя Соня
07. Президентское меню
08. У мента Аркадия
09. Журавли, журавли
10. Судья
11. Не любится при свете
12. Любви все возрасты покорны
13. Как, вы не были в Одессе
14. Вам бы в Лондоне жить

Формат mp3
Качество 320Kbps
Размер 100Mb
Релиз ot Tomas




Ссылка и пароль:
Для просмотра этого блока необходима регистрация
Ирена,
Среда, 12 Августа 2009, 12:17 Бернард - Московский снег 2009


Исполнитель Бернард
Альбом Московский снег 2009
Жанр Шансон
Содержание
01. Московский снег
02. В сигаретном дыму
03. Далида
04. Северный край
05. Нью-Йоркская история
06. Под планом
07. Таня Рощина
08. Вы, что
09. Я подарю себе-тебя
10. Королева снежная

Формат mp3
Качество 320Kbps
Размер 88Mb
Релиз ot Tomas




Ссылка и пароль:
Для просмотра этого блока необходима регистрация

Ирена,
Суббота, 8 Августа 2009, 10:15 Анатолий Могилевский - GRAND Collection 2006


Исполнитель Анатолий Могилевский
Альбом GRAND Collection 2006
Жанр Шансон
Содержание
01. Я Вас люблю, Мадам
02. Америка - Россия
03. Бабье лето
04. Здравствуй, чужая милая
05. Гоп-стоп, бабушка здорова
06. Мама
07. Вас ждёт Париж
08. Когда мужчина плачет
09. Цыганка
10. Невезучая любовь
11. Твои глаза
12. Осень
13. Старое кафе
14. У беды глаза зелёные
15. Когда простым и нежным взором ...
16. Жёнушка - жена
17. Поздно
18. Прохоря
19. Очарована, околдована

Добавлена опция для восстановления 3%
EAC, FLAC, CUE, LOG




Ссылка и пароль:
Для просмотра этого блока необходима регистрация


Цитата
Exact Audio Copy V0.99 prebeta 5 from 4. May 2009

Отчёт EAC об извлечении, выполненном 1. августа 2009, 12:20

Анатолий Могилевский / Grand Collection

Дисковод: TSSTcorpCDDVDW SH-S223F Adapter: 2 ID: 0

Режим чтения : Достоверность
Использование точного потока : Да
Отключение кэша аудио : Да
Использование указателей C2 : Нет

Коррекция смещения при чтении : 6
Способность читать области Lead-in и Lead-out : Нет
Заполнение пропущенных сэмплов тишиной : Да
Удаление блоков с тишиной в начале и конце : Нет
При вычислениях CRC использовались нулевые сэмплы : Да
Интерфейс : Встроенный Win32-интерфейс для Win NT/2000

Выходной формат : Внутренние WAV-операции
Формат сэмплов : 44.100 Гц; 16 бит; стерео


TOC извлечённого CD

Трек | Старт | Длительность | Начальный сектор | Конечный сектор
---------------------------------------------------------------------
1 | 0:00.00 | 2:52.42 | 0 | 12941
2 | 2:52.42 | 3:42.31 | 12942 | 29622
3 | 6:34.73 | 4:46.23 | 29623 | 51095
4 | 11:21.21 | 4:32.21 | 51096 | 71516
5 | 15:53.42 | 4:34.39 | 71517 | 92105
6 | 20:28.06 | 4:10.01 | 92106 | 110856
7 | 24:38.07 | 3:25.16 | 110857 | 126247
8 | 28:03.23 | 4:37.33 | 126248 | 147055
9 | 32:40.56 | 4:24.27 | 147056 | 166882
10 | 37:05.08 | 4:41.31 | 166883 | 187988
11 | 41:46.39 | 5:16.45 | 187989 | 211733
12 | 47:03.09 | 4:04.42 | 211734 | 230075
13 | 51:07.51 | 4:37.01 | 230076 | 250851
14 | 55:44.52 | 5:18.20 | 250852 | 274721
15 | 61:02.72 | 2:19.00 | 274722 | 285146
16 | 63:21.72 | 4:04.56 | 285147 | 303502
17 | 67:26.53 | 4:54.40 | 303503 | 325592
18 | 72:21.18 | 3:20.04 | 325593 | 340596
19 | 75:41.22 | 4:15.70 | 340597 | 359791


Характеристики диапазона извлечения и сообщения об ошибках

Выбранный диапазон

Имя файла C:\Documents and Settings\Vladimir\Рабочий стол\Анатолий Могилевский - GRAND Collection\Анатолий Могилевский - Grand Collection.wav

Пиковый уровень 99.2 %
Качество диапазона 100.0 %
CRC копии 16633971
Копирование... OK

Ошибок не произошло

Конец отчёта
Ирена,
Суббота, 8 Августа 2009, 10:13 Гарик Кричевский - Свобода 2001


Исполнитель Гарик Кричевский
Альбом Свобода 2001
Жанр Шансон
Содержание
01.Свобода
02.Подрывники
03.Русское лето
04.Обман
05.В Колымском стосе...
06.Охранник
07.Падает снег
08.В старой посудине
09.Горячая точка
10.Летний вальс
11.Стрелка
12.Осенний вечер

Добавлена опция для восстановления 3%
EAC, FLAC, CUE, LOG, Covers




Ссылка и пароль:
Для просмотра этого блока необходима регистрация


Цитата
Exact Audio Copy V0.99 prebeta 5 from 4. May 2009

Отчёт EAC об извлечении, выполненном 5. августа 2009, 20:31

Гарик Кричевский / Свобода

Дисковод: TSSTcorpCDDVDW SH-S223F Adapter: 2 ID: 0

Режим чтения : Достоверность
Использование точного потока : Да
Отключение кэша аудио : Да
Использование указателей C2 : Нет

Коррекция смещения при чтении : 6
Способность читать области Lead-in и Lead-out : Нет
Заполнение пропущенных сэмплов тишиной : Да
Удаление блоков с тишиной в начале и конце : Нет
При вычислениях CRC использовались нулевые сэмплы : Да
Интерфейс : Встроенный Win32-интерфейс для Win NT/2000

Выходной формат : Внутренние WAV-операции
Формат сэмплов : 44.100 Гц; 16 бит; стерео


TOC извлечённого CD

Трек | Старт | Длительность | Начальный сектор | Конечный сектор
---------------------------------------------------------------------
1 | 0:00.00 | 2:56.35 | 0 | 13234
2 | 2:56.35 | 2:33.61 | 13235 | 24770
3 | 5:30.21 | 3:29.40 | 24771 | 40485
4 | 8:59.61 | 4:03.54 | 40486 | 58764
5 | 13:03.40 | 3:11.24 | 58765 | 73113
6 | 16:14.64 | 3:40.52 | 73114 | 89665
7 | 19:55.41 | 3:47.00 | 89666 | 106690
8 | 23:42.41 | 3:43.49 | 106691 | 123464
9 | 27:26.15 | 3:00.69 | 123465 | 137033
10 | 30:27.09 | 3:42.13 | 137034 | 153696
11 | 34:09.22 | 3:06.10 | 153697 | 167656
12 | 37:15.32 | 3:11.26 | 167657 | 182007


Характеристики диапазона извлечения и сообщения об ошибках

Выбранный диапазон

Имя файла C:\Documents and Settings\Vladimir\Рабочий стол\Гарик Кричевсктй - Свобода 2001\Гарик Кричевский - Свобода.wav

Пиковый уровень 89.1 %
Качество диапазона 100.0 %
CRC копии FCFB9A56
Копирование... OK

Ошибок не произошло

Конец отчёта
Ирена,
Суббота, 8 Августа 2009, 10:10 Колыма - Рублёвское шоссе 2003


Исполнитель Колыма
Альбом Рублёвское шоссе 2003
Жанр Шансон
Содержание
01.Танечка
02.Рублёвское шоссе
03.Шереметьево-2
04.Дружок
05.Лефортовский сизо
06.Запретная зона
07.Коттеджный городок
08.Матросская тишина
09.Перекати-поле
10.Памяти друга
11.Живите сейчас
12.Пацаны
13.Казанский вокзал
14.Егорий
15.Журавлиные стаи
16.Апрель
17.К маме
18.Ах, первый срок
19.Ну вот и дома
20.Москва бандитская

Добавлена опция для восстановления 3%
EAC, FLAC, CUE, LOG, Covers




Ссылка и пароль:
Для просмотра этого блока необходима регистрация


Цитата
Exact Audio Copy V0.99 prebeta 5 from 4. May 2009

Отчёт EAC об извлечении, выполненном 4. августа 2009, 12:06

Колыма / Рублёвское шоссе

Дисковод: TSSTcorpCDDVDW SH-S223F Adapter: 2 ID: 0

Режим чтения : Достоверность
Использование точного потока : Да
Отключение кэша аудио : Да
Использование указателей C2 : Нет

Коррекция смещения при чтении : 6
Способность читать области Lead-in и Lead-out : Нет
Заполнение пропущенных сэмплов тишиной : Да
Удаление блоков с тишиной в начале и конце : Нет
При вычислениях CRC использовались нулевые сэмплы : Да
Интерфейс : Встроенный Win32-интерфейс для Win NT/2000

Выходной формат : Внутренние WAV-операции
Формат сэмплов : 44.100 Гц; 16 бит; стерео


TOC извлечённого CD

Трек | Старт | Длительность | Начальный сектор | Конечный сектор
---------------------------------------------------------------------
1 | 0:00.00 | 3:15.56 | 0 | 14680
2 | 3:15.56 | 4:28.04 | 14681 | 34784
3 | 7:43.60 | 3:51.50 | 34785 | 52159
4 | 11:35.35 | 2:24.58 | 52160 | 63017
5 | 14:00.18 | 4:27.49 | 63018 | 83091
6 | 18:27.67 | 3:21.17 | 83092 | 98183
7 | 21:49.09 | 4:37.36 | 98184 | 118994
8 | 26:26.45 | 2:44.06 | 118995 | 131300
9 | 29:10.51 | 3:09.67 | 131301 | 145542
10 | 32:20.43 | 3:42.08 | 145543 | 162200
11 | 36:02.51 | 2:59.31 | 162201 | 175656
12 | 39:02.07 | 4:20.02 | 175657 | 195158
13 | 43:22.09 | 3:28.23 | 195159 | 210781
14 | 46:50.32 | 3:17.70 | 210782 | 225626
15 | 50:08.27 | 4:45.08 | 225627 | 247009
16 | 54:53.35 | 2:40.16 | 247010 | 259025
17 | 57:33.51 | 4:22.64 | 259026 | 278739
18 | 61:56.40 | 3:06.69 | 278740 | 292758
19 | 65:03.34 | 3:06.02 | 292759 | 306710
20 | 68:09.36 | 3:33.37 | 306711 | 322722


Характеристики диапазона извлечения и сообщения об ошибках

Выбранный диапазон

Имя файла C:\Documents and Settings\Vladimir\Рабочий стол\Колыма - Рублёвское шоссе 2003\Колыма - Рублёвское шоссе.wav

Пиковый уровень 98.2 %
Качество диапазона 99.9 %
CRC копии 3AD1BEBF
Копирование... OK

Ошибок не произошло

Конец отчёта


Ирена,
Понедельник, 3 Августа 2009, 20:53 Евгений Чужой - По городам и весям 2007


Исполнитель Евгений Чужой
Альбом По городам и весям 2007
Жанр Шансон
Содержание
01 Кострома
02 Абхазский дворик
03 Посвящение Шукшину
04 Сочи
05 Даль Астраханская
06 Артезиан
07 Дагестан
08 Берег Крыма
09 Удмуртия
10 Отель ''Черноморье''
11 Барнаул
12 Казань

Формат mp3
Качество 320Kbps
Размер 108Mb
Релиз ot Tomas




Ссылка и пароль:
Для просмотра этого блока необходима регистрация


Ирена,
Понедельник, 3 Августа 2009, 20:51 Виталий Червонный - Ах, Одесса 1995


Исполнитель Виталий Червонный
Альбом Ах, Одесса 1995
Жанр Шансон
Содержание
01 Ах, Одесса
02 Мясоедовская
03 Школа бальных танцев
04 Свадьба в доме Шнеерсона
05 На Дерибасовской
06 Как-то по проспекту
07 Фонарики
08 Куплеты Мишки Япончика
09 Хаим
10 Сонькины именины
11 Лимончики
12 Одессит
13 Ах, Одесса моя ненаглядная

Формат mp3
Качество 320Kbps
Размер 89Mb
Релиз ot Tomas




Ссылка и пароль:
Для просмотра этого блока необходима регистрация


Ирена,
Понедельник, 3 Августа 2009, 20:47 Микаэл Таривердиев - Авторские обработки еврейских песен


Исполнитель Микаэл Таривердиев и Мария Иткина
Альбом Авторские обработки еврейских песен 2005
Жанр Фолк
Содержание
01. Эй, братья, что же вы спите?
02. Играйте, деточки!
03. Я бездомный с малых лет.
04. Не ищи меня там, где зеленеют мирты.
05. Ох, где взять немножко везенья
06. Есть у нас песенка, поем ее все вместе.
07. В печурке играет огонь.
08. Дай нам удел среди них (истинно верующих) - и да не постыдимся, что верили в Тебя.
09. Излей, как воду,свое сердце перед Всевышним.
10. Где же ты был?
11. Горит! Братцы, горит!

Формат mp3
Качество 320Kbps
Размер 88Mb
Релиз ot Tomas




Ссылка и пароль:
Для просмотра этого блока необходима регистрация

Ирена,
Суббота, 1 Августа 2009, 11:36 Воровайки - Держи вора (5 альбом) 2003


Исполнитель Воровайки
Альбом Держи вора (5 альбом) 2003
Жанр Шансон
Содержание
01. Бен Ладен и Буш
02. Чебуреки
03. Держи вора
04. Журавли над зоной
05. Федя
06. Молодой вор
07. Сирота казанская
08. Мачо
09. Как мне жить без тебя
10. Что девчонкам надо?
11. Сумочки-карманчики
12. Я буду ждать весну

Добавлена опция для восстановления 3%
EAC, FLAC, CUE, LOG



Ссылка и пароль:
Для просмотра этого блока необходима регистрация


Цитата
Exact Audio Copy V0.99 prebeta 5 from 4. May 2009

Отчёт EAC об извлечении, выполненном 31. июля 2009, 12:33

Воровайки / Держи вора (5 альбом)

Дисковод: TSSTcorpCDDVDW SH-S223F Adapter: 2 ID: 0

Режим чтения : Достоверность
Использование точного потока : Да
Отключение кэша аудио : Да
Использование указателей C2 : Нет

Коррекция смещения при чтении : 6
Способность читать области Lead-in и Lead-out : Нет
Заполнение пропущенных сэмплов тишиной : Да
Удаление блоков с тишиной в начале и конце : Нет
При вычислениях CRC использовались нулевые сэмплы : Да
Интерфейс : Встроенный Win32-интерфейс для Win NT/2000

Выходной формат : Внутренние WAV-операции
Формат сэмплов : 44.100 Гц; 16 бит; стерео


TOC извлечённого CD

Трек | Старт | Длительность | Начальный сектор | Конечный сектор
---------------------------------------------------------------------
1 | 0:00.00 | 3:21.38 | 0 | 15112
2 | 3:21.38 | 3:22.36 | 15113 | 30298
3 | 6:43.74 | 3:00.33 | 30299 | 43831
4 | 9:44.32 | 4:01.59 | 43832 | 61965
5 | 13:46.16 | 3:10.39 | 61966 | 76254
6 | 16:56.55 | 5:16.69 | 76255 | 100023
7 | 22:13.49 | 4:28.53 | 100024 | 120176
8 | 26:42.27 | 3:54.72 | 120177 | 137798
9 | 30:37.24 | 4:37.00 | 137799 | 158573
10 | 35:14.24 | 3:30.47 | 158574 | 174370
11 | 38:44.71 | 3:36.14 | 174371 | 190584
12 | 42:21.10 | 3:26.48 | 190585 | 206082


Характеристики диапазона извлечения и сообщения об ошибках

Выбранный диапазон

Имя файла C:\Documents and Settings\Vladimir\Рабочий стол\Воровайки - Держи вора (5 альбом) 2003\Воровайки - Держи вора (5 альбом).wav

Пиковый уровень 100.0 %
Качество диапазона 100.0 %
CRC копии 93037CF7
Копирование... OK

Ошибок не произошло

Конец отчёта

Ирена,
Суббота, 1 Августа 2009, 11:34 Колыма - Москва бандитская 2005


Исполнитель Колыма
Альбом Москва бандитская 2005
Жанр Шансон
Содержание
01. Троекуровское
02. Гуси - лебеди
03. Апрель
04. Москва бандитская
05. Братва
06. Футбол на Бережковской
07. Ты подожди
08. Егорий
09. Казанский вокзал
10. Ах, первый срок…
11. К маме
12. За тех, кто там

Добавлена опция для восстановления 3%
EAC, FLAC, CUE, LOG




Ссылка и пароль:
Для просмотра этого блока необходима регистрация

Цитата
Exact Audio Copy V0.99 prebeta 5 from 4. May 2009

Отчёт EAC об извлечении, выполненном 31. июля 2009, 9:36

Колыма / Москва бандитская

Дисковод: TSSTcorpCDDVDW SH-S223F Adapter: 2 ID: 0

Режим чтения : Достоверность
Использование точного потока : Да
Отключение кэша аудио : Да
Использование указателей C2 : Нет

Коррекция смещения при чтении : 6
Способность читать области Lead-in и Lead-out : Нет
Заполнение пропущенных сэмплов тишиной : Да
Удаление блоков с тишиной в начале и конце : Нет
При вычислениях CRC использовались нулевые сэмплы : Да
Интерфейс : Встроенный Win32-интерфейс для Win NT/2000

Выходной формат : Внутренние WAV-операции
Формат сэмплов : 44.100 Гц; 16 бит; стерео


TOC извлечённого CD

Трек | Старт | Длительность | Начальный сектор | Конечный сектор
---------------------------------------------------------------------
1 | 0:00.00 | 3:25.09 | 0 | 15383
2 | 3:25.09 | 3:26.37 | 15384 | 30870
3 | 6:51.46 | 2:43.00 | 30871 | 43095
4 | 9:34.46 | 3:38.00 | 43096 | 59445
5 | 13:12.46 | 4:26.00 | 59446 | 79395
6 | 17:38.46 | 4:56.37 | 79396 | 101632
7 | 22:35.08 | 4:48.37 | 101633 | 123269
8 | 27:23.45 | 3:20.37 | 123270 | 138306
9 | 30:44.07 | 3:30.37 | 138307 | 154093
10 | 34:14.44 | 3:09.65 | 154094 | 168333
11 | 37:24.34 | 4:25.00 | 168334 | 188208
12 | 41:49.34 | 4:48.64 | 188209 | 209872


Характеристики диапазона извлечения и сообщения об ошибках

Выбранный диапазон

Имя файла C:\Documents and Settings\Vladimir\Рабочий стол\Колыма - Москва бандитская 2005\Колыма - Москва бандитская.wav

Пиковый уровень 65.4 %
Качество диапазона 99.9 %
CRC копии 8B3FA4E5
Копирование... OK

Ошибок не произошло

Конец отчёта

Ирена,
Суббота, 1 Августа 2009, 11:31 Бутырка - Меня встречают лагеря 2007


Исполнитель Бутырка
Альбом Меня встречают лагеря 2007
Жанр Шансон
Содержание
01.Меня встречают лагеря
02.Аттестат
03.Грев
04.Картинка-медсестра
05.Безбилетный пассажир
06.Тает снег
07.По этапу
08.День рождения
09.Дорожки
10.А для вас я никто
10.Девчонка с центра
11.Последний рассвет
13.Бандероль
14.Без баб и водки
15.Весточка
16.Быть вором
17.Судья сказал
18.Почтальон
19.Кресты

Добавлена опция для восстановления 3%
EAC, FLAC, CUE, LOG, Covers




Ссылка и пароль:
Для просмотра этого блока необходима регистрация


Цитата
Exact Audio Copy V0.99 prebeta 5 from 4. May 2009

Отчёт EAC об извлечении, выполненном 30. июля 2009, 11:16

Бутырка / Меня встречают лагеря

Дисковод: TSSTcorpCDDVDW SH-S223F Adapter: 2 ID: 0

Режим чтения : Достоверность
Использование точного потока : Да
Отключение кэша аудио : Да
Использование указателей C2 : Нет

Коррекция смещения при чтении : 6
Способность читать области Lead-in и Lead-out : Нет
Заполнение пропущенных сэмплов тишиной : Да
Удаление блоков с тишиной в начале и конце : Нет
При вычислениях CRC использовались нулевые сэмплы : Да
Интерфейс : Встроенный Win32-интерфейс для Win NT/2000

Выходной формат : Внутренние WAV-операции
Формат сэмплов : 44.100 Гц; 16 бит; стерео


TOC извлечённого CD

Трек | Старт | Длительность | Начальный сектор | Конечный сектор
---------------------------------------------------------------------
1 | 0:00.00 | 3:40.28 | 0 | 16527
2 | 3:40.28 | 4:19.47 | 16528 | 35999
3 | 8:00.00 | 5:18.49 | 36000 | 59898
4 | 13:18.49 | 3:36.44 | 59899 | 76142
5 | 16:55.18 | 3:28.39 | 76143 | 91781
6 | 20:23.57 | 3:39.31 | 91782 | 108237
7 | 24:03.13 | 3:25.18 | 108238 | 123630
8 | 27:28.31 | 3:39.01 | 123631 | 140056
9 | 31:07.32 | 3:24.16 | 140057 | 155372
10 | 34:31.48 | 3:35.45 | 155373 | 171542
11 | 38:07.18 | 3:14.28 | 171543 | 186120
12 | 41:21.46 | 4:16.50 | 186121 | 205370
13 | 45:38.21 | 3:14.33 | 205371 | 219953
14 | 48:52.54 | 2:57.01 | 219954 | 233229
15 | 51:49.55 | 5:27.49 | 233230 | 257803
16 | 57:17.29 | 4:00.05 | 257804 | 275808
17 | 61:17.34 | 5:17.64 | 275809 | 299647
18 | 66:35.23 | 4:16.42 | 299648 | 318889
19 | 70:51.65 | 3:18.53 | 318890 | 333792


Характеристики диапазона извлечения и сообщения об ошибках

Выбранный диапазон

Имя файла C:\Documents and Settings\Vladimir\Рабочий стол\Бутырка - Меня встречают лагеря 2007\Бутырка - Меня встречают лагеря.wav

Пиковый уровень 100.0 %
Качество диапазона 100.0 %
CRC копии BC5FDD07
Копирование... OK

Ошибок не произошло

Конец отчёта


Ирена,
Среда, 29 Июля 2009, 9:56 Александровская Ира с ансамблем Черноморская Чайка 1988


Исполнитель Александровская Ира с ансамблем Черноморская Чайка 1988
Альбом Шаланды
Жанр Шансон
Содержание
01. Вступление
02. Шаланды
03. Была твоею
04. Еврей Зяма
05. Одесса-мама
06. Усатый
07. Ах, Одесса
08. Я была тобою
09. Евреи
10. Без Одессы
11. Налей стакан
12. Белочка
13. Танго
14. Деньги
15. Одесса
16. Мурка
17. Пивная
18. Очередь
19. Видео
20. Фонарики
21. А на кладбище
22. Денежки
23. Сарай
24. Катарина
25. Аллея Космонавтов

Формат mp3
Качество 320Kbps
Размер 184Mb
Релиз ot Tomas




Ссылка и пароль:
Для просмотра этого блока необходима регистрация
Ирена,
Среда, 29 Июля 2009, 9:54 Николай Соколов - Не грустите , пацаны! 2008


Исполнитель Николай Соколов
Альбом Не грустите , пацаны! 2008
Жанр Шансон
Содержание
01.Особый
02.Всё В Полоску
03.Берега
04.Семиукская Академия
05.Национальность–Москвич
06.Разговор С Другом
07.На Этап
08.Живём Надеждой
09.Кукушка
10.Амнистия
11.Четыре Года
12.Не Грустите, Пацаны!

Формат mp3
Качество 320Kbps
Размер 108Mb
Релиз ot Tomas




Ссылка и пароль:
Для просмотра этого блока необходима регистрация
Ирена,
Воскресенье, 26 Июля 2009, 23:22 Иза Кремер и Алла Баянова 2000


Исполнитель Иза Кремер и Алла Баянова
Альбом Иза Кремер и Алла Баянова 2000
Жанр Ретро. Эмигрантский шансон
Содержание
01. Звезда (Иза Кремер)
02. Воспоминания (Иза Кремер)
03. Чёрный том (Иза Кремер)
04. Мадам Лулу (Иза Кремер)
05. Коробушка (Иза Кремер)
06. Ну, целуй (Иза Кремер)
07. Бубенцы (Иза Кремер)
08. Ямщик (Иза Кремер)
09. Москва (Иза Кремер)
10. Россия (Иза Кремер)
11. Танго (Алла Баянова)
12. Вернись (Алла Баянова)
13. Легче сердцу (Алла Баянова)
14. Давай простимся (Алла Баянова)
15. Вы просите песен (Алла Баянова)
16. Смолкает рояль (Алла Баянова)
17. Синяя рапсодия (Алла Баянова)
18. Маэстро (Алла Баянова)
19. Ночь тиха (Алла Баянова)
20. Сомненья (Алла Баянова)
21. Хорошо на свете жить (Алла Баянова)
22. Очень хорошо (Алла Баянова)
23. Волга (Алла Баянова)

Добавлена опция для восстановления 3%
EAC FLAC, CUE, LOG, Covers
Саны в архиве




Ссылка и пароль:
Для просмотра этого блока необходима регистрация

Взято торрентом. Релиз от doremi
Ирена,
Воскресенье, 26 Июля 2009, 23:18 Гарик Кричевский - Старые друзья 2003


Исполнитель Гарик Кричевский
Альбом Старые друзья 2003
Жанр Шансон
Содержание
01.Старые друзья
02.Дальнобойщик
03.Сальвадор Дали
04.Навеки
05.Ништяк-браток
06.Дорога к другу
07.Астория
08.Кап, кап, кап...
09.Мамина черешня
10.Видение

Добавлена опция для восстановления 3%
EAC, FLAC, CUE, LOG, Covers




Ссылка и пароль:
Для просмотра этого блока необходима регистрация

Цитата
Exact Audio Copy V0.99 prebeta 5 from 4. May 2009

Отчёт EAC об извлечении, выполненном 24. июля 2009, 19:15

Гарик Кричевский / Старые друзья

Дисковод: TSSTcorpCDDVDW SH-S223F Adapter: 2 ID: 0

Режим чтения : Достоверность
Использование точного потока : Да
Отключение кэша аудио : Да
Использование указателей C2 : Нет

Коррекция смещения при чтении : 6
Способность читать области Lead-in и Lead-out : Нет
Заполнение пропущенных сэмплов тишиной : Да
Удаление блоков с тишиной в начале и конце : Нет
При вычислениях CRC использовались нулевые сэмплы : Да
Интерфейс : Встроенный Win32-интерфейс для Win NT/2000

Выходной формат : Внутренние WAV-операции
Формат сэмплов : 44.100 Гц; 16 бит; стерео


TOC извлечённого CD

Трек | Старт | Длительность | Начальный сектор | Конечный сектор
---------------------------------------------------------------------
1 | 0:00.00 | 3:37.73 | 0 | 16347
2 | 3:37.73 | 4:23.01 | 16348 | 36073
3 | 8:00.74 | 5:05.27 | 36074 | 58975
4 | 13:06.26 | 4:24.37 | 58976 | 78812
5 | 17:30.63 | 2:47.34 | 78813 | 91371
6 | 20:18.22 | 3:25.46 | 91372 | 106792
7 | 23:43.68 | 2:57.01 | 106793 | 120068
8 | 26:40.69 | 3:28.31 | 120069 | 135699
9 | 30:09.25 | 4:31.07 | 135700 | 156031
10 | 34:40.32 | 4:06.23 | 156032 | 174504


Характеристики диапазона извлечения и сообщения об ошибках

Выбранный диапазон

Имя файла C:\Documents and Settings\Vladimir\Рабочий стол\Гарик Кричевский - Старые друзья 2003\Гарик Кричевский - Старые друзья.wav

Пиковый уровень 100.0 %
Качество диапазона 100.0 %
CRC копии 49635BFA
Копирование... OK

Ошибок не произошло

Конец отчёта
Ирена,
Четверг, 23 Июля 2009, 23:45 Теодор Бикель - Песни Cамиздата Советской России 1972


01. Zoi Shoyn Kumen
02. Tolko tri Chassa
03. Sinai
04. Verushalayim
05. Tel-Avivskaya Tytya (Тель-авивская тетя)
06. Otpusti Narod Moy
07. Nye Bayussya
08. Yexcho Raz
09. Lechana Haba
10. Akh ti Serdtze
11. Am Yiesroel chai

Формат:mp3
Качество:320kbs
Запаковано в:RAR
Размер:81mb
Релиз от:Naumchik (vsetutonline.com)

Ссылкa и пароль
Для просмотра этого блока необходима регистрация
Ирена,
Четверг, 23 Июля 2009, 23:43 Нехама Лифшиц / Nechama Lifshiz - Di shtern 2006


Исполнитель Нехама Лифшиц / Nechama Lifshiz
Альбом Di shtern 2006
Жанр Еврейская песня
Содержание
01 Grine bleter
02 A glesele yash
03 Mame, shlog mikh nit
04 Undzer nigndl
05 Der vekhter
06 Di yontevdike teg
07 Babi yar
08 Katarina,moloditsa,podi suda
09 Der kranker shnayder
10 Lomir zikh iberbetn
11 Yankele
12 Dos freylekhe shnayderl

Формат mp3
Качество 192Kbps
Размер 63Mb
Релиз ot Tomas




Ссылка и пароль:
Для просмотра этого блока необходима регистрация
Ирена,
Вторник, 21 Июля 2009, 20:55 ВИА Водограй - ВИА Best 2008


01 Запроси до танцю В.Ивасюк – Б.Стельмах
02 Незване мое кохання В.Ивасюк – Р.Братунь
03 Дiвчина мила Украинская народная песня
04 Подорож О.Косько
05 Несла дiвчина воду Украинская народная песня
06 Тебе назло М.Некрич – Ю.Финкель
07 Вишневый рассвет М.Некрич – А.Вратарев
08 Воспоминание О.Косько
09 Родине О.Тевдорадзе – Е.Стюарт
10 Музыкальная шутка на тему песни «Голубой вагон» В.Шаинский

Формат:mp3
Качество:320kbs
Запаковано в:RAR
Размер:84mb
Релиз от:Naumchik (vsetutonline.com)

Ссылки и пароль:
Для просмотра этого блока необходима регистрация
Ирена,
Вторник, 21 Июля 2009, 20:53 Сборник - Яростный стройотряд 1999


01. Александр Градский - Яростный стройотряд
02. Лев Барашков - Ребята 70-й широты
03. Квартет "Аккорд" - Звездопад
04. Олег Анофриев - Песенка о Робинзонах
05. Муслим Магомаев - Голубая тайга
06. Владимир Макаров - За туманом
07. Мужская группа Уральского хора - Едут новоселы
08. Клавдия Шульженко - Песня московских студентов
09. Эмиль Горовец - Голубые города
10. Лев Барашков - Главное, ребята - сердцем не стареть
11. Юрий Пузырев - Бригантина
12. В. Берковский, Д. Богданов - Гренада
13. ВИА "Пламя" - И зовет нас в дорогу "Спутник"
14. ВИА "Добры Молодцы" - Кеды
15. ВИА "Пламя" - На дальней станции сойду
16. Юрий Визбор - Милая моя
17. Иосиф Кобзон - Прощание с Братском
18. ВИА "Самоцветы" - Мой адрес - Советский Союз 19. Булат Окуджава - Союз друзей

Формат:mp3
Качество:320kbs
Запаковано в:RAR
Размер:128mb
Релиз от:Naumchik

Ссылки и пароль:
Для просмотра этого блока необходима регистрация
Ирена,
Воскресенье, 19 Июля 2009, 8:57 Маки - Одесса 1988 VinylRip


Исполнитель Маки
Альбом Одесса 1988 VinylRip
Жанр Поп/Ретро
Содержание
01.Одесса (В. Матецкий - М. Танич)
02.Так случилось (В. Матецкий - М. Шабров)
03.Когда, когда (В. Добрынин - Л. Дербенев)
04.Расскажи (В. Матецкий - М. Шабров)
05.Фантомас (К. Семченко - М. Танич)
06.Звезды далекий свет (В. Матецкий - М. Шабров)
07.Спорт и мода (В. Матецкий - М. Шабров)
08.Ночь (музыка и слова К. Семченко)

В 1986 году Валерий Чуменко реформировал ВИА "Красные маки" в группу "Маки", которая просуществовала до 1989 года.
В 88-м на фирме "Мелодия" вышла единственная пластинка коллектива - "Одесса".


Добавлена опция для восстановления 3%
FLAC, Covers
Сканы в архиве




Ссылка и пароль:
Для просмотра этого блока необходима регистрация
Ирена,
Воскресенье, 19 Июля 2009, 8:55 Майя Кристалинская - Для тебя 2005


Исполнитель Майя Кристалинская
Альбом Для тебя 2005
Жанр Ретро
Содержание
01 А любовь, как песня
02 Всё потому
03 Оглянись
04 Взрослые дочери
05 Судьба
06 Для тебя
07 Полынь
08 Верба-вербочка
09 Только любовь права
10 Не зажигай огня
11 Не спеши
12 Течёт Волга
13 Ивушка
14 Текстильный городок
15 Добрый вечер
16 До завтра
17 Тоска по Родине
18 Мамина осень
19 Записка
20 Еду я
21 На причале

Добавлена опция для восстановления 3%
FLAC потреково, CUE, LOG, Covers
Сканы в архиве




Ссылка и пароль:
Для просмотра этого блока необходима регистрация


Взято торрентом
Ирена,
Пятница, 17 Июля 2009, 13:12 Скок Алёна - Вольная 2009


Исполнитель Скок Алёна
Альбом Вольная 2009
Жанр Шансон
Содержание
01 Рожденный в неволе
02 Была девка
03 Елки у Крестов
04 За колючей тьмой
05 Ну, вот такие, брат, дела
06 Вольная
07 С возвращением, осень
08 Люди разные здесь...
09 Ягодка
10 Я завидую тем...
11 Здравствуй, мама
12 Белый аист
13 Лодочка

Формат mp3
Качество 320Kbps
Размер 110Mb
Релиз ot Tomas




Ссылка и пароль:
Для просмотра этого блока необходима регистрация
Ирена,
Пятница, 17 Июля 2009, 13:10 Морган Андрей - Погадай мне... 2008


Исполнитель Морган Андрей
Альбом Погадай мне... 2008
Жанр Шансон
Содержание
01. Осень
02. Свадьба
03. Таксист
04. Минская любовь
05. Погадай мне, цыганка
06. Дочь полковника
07. Ставка
08. Девочка-дюймовочка
09. Таксист-2
10. Поговорим на ты
11. До свиданья, Лида

Формат mp3
Качество 320Kbps
Размер 83Mb
Релиз ot Tomas




Ссылка и пароль:
Для просмотра этого блока необходима регистрация
Ирена,
Пятница, 17 Июля 2009, 13:08 Чехов Слава - Рыжеволосая мадам 2004


Исполнитель Чехов Слава
Альбом Рыжеволосая мадам 2004
Жанр Шансон
Содержание
01 Я целью ставил
02 Соня-самогонщица
03 Рыжеволосая мадам
04 Я сегодня лихой
05 Под покрывалом ночи
06 Прощание с деревней
07 Люси
08 А водка буль-буль
09 Я согрею теплом
10 Я уже не тот
11 Я удивляюсь
12 Белая горячка
13 Нет на карте
14 Ты молчишь
15 Прости меня, мать
16 Родина
17 Синее небо

Формат mp3
Качество 320Kbps
Размер 136Mb
Релиз ot Tomas




Ссылка и пароль:
Для просмотра этого блока необходима регистрация
Ирена,

6 страниц V  < 1 2 3 4 5 > » 
Текстовая версия Сейчас: Сб, 14 Декабря 2019, 22:37


 
AiwanВs emoticons KOLOBOK-Style
Russian America Top. Рейтинг ресурсов Русской Америки.
Рейтинг Новостей Америки
Ozon.ru