IPB
Для читателей: поддержка сайта, к сожалению, требует не только сил и энергии, но и денег.
Если у Вас, вдруг, где-то завалялось немного лишних денег - поддержите портал







Здравствуйте, гость ( Вход | Регистрация )

 
Ответ в темуСоздание новой темы
> Колыма - Москва бандитская 2005, Lossless
Tomas Pisces
Сообщение #1


Пишу, но редко
Иконки Групп

Группа: Модератор
Сообщений: 164
Регистрация: 19 Сентября 2005
Из: Israel

 Израиль 

Пользователь №: 313
Спасибо сказали: 174 раз(а)




(IMG:http://s06.radikal.ru/i179/0907/e3/7680ba7b08a0.jpg)

Исполнитель Колыма
Альбом Москва бандитская 2005
Жанр Шансон
Содержание
01. Троекуровское
02. Гуси - лебеди
03. Апрель
04. Москва бандитская
05. Братва
06. Футбол на Бережковской
07. Ты подожди
08. Егорий
09. Казанский вокзал
10. Ах, первый срок…
11. К маме
12. За тех, кто там

Добавлена опция для восстановления 3%
EAC, FLAC, CUE, LOG


(IMG:http://s61.radikal.ru/i171/0901/97/184ae46bc63c.gif)

Ссылка и пароль:
Для просмотра этого блока необходима регистрация

Цитата
Exact Audio Copy V0.99 prebeta 5 from 4. May 2009

Отчёт EAC об извлечении, выполненном 31. июля 2009, 9:36

Колыма / Москва бандитская

Дисковод: TSSTcorpCDDVDW SH-S223F Adapter: 2 ID: 0

Режим чтения : Достоверность
Использование точного потока : Да
Отключение кэша аудио : Да
Использование указателей C2 : Нет

Коррекция смещения при чтении : 6
Способность читать области Lead-in и Lead-out : Нет
Заполнение пропущенных сэмплов тишиной : Да
Удаление блоков с тишиной в начале и конце : Нет
При вычислениях CRC использовались нулевые сэмплы : Да
Интерфейс : Встроенный Win32-интерфейс для Win NT/2000

Выходной формат : Внутренние WAV-операции
Формат сэмплов : 44.100 Гц; 16 бит; стерео


TOC извлечённого CD

Трек | Старт | Длительность | Начальный сектор | Конечный сектор
---------------------------------------------------------------------
1 | 0:00.00 | 3:25.09 | 0 | 15383
2 | 3:25.09 | 3:26.37 | 15384 | 30870
3 | 6:51.46 | 2:43.00 | 30871 | 43095
4 | 9:34.46 | 3:38.00 | 43096 | 59445
5 | 13:12.46 | 4:26.00 | 59446 | 79395
6 | 17:38.46 | 4:56.37 | 79396 | 101632
7 | 22:35.08 | 4:48.37 | 101633 | 123269
8 | 27:23.45 | 3:20.37 | 123270 | 138306
9 | 30:44.07 | 3:30.37 | 138307 | 154093
10 | 34:14.44 | 3:09.65 | 154094 | 168333
11 | 37:24.34 | 4:25.00 | 168334 | 188208
12 | 41:49.34 | 4:48.64 | 188209 | 209872


Характеристики диапазона извлечения и сообщения об ошибках

Выбранный диапазон

Имя файла C:\Documents and Settings\Vladimir\Рабочий стол\Колыма - Москва бандитская 2005\Колыма - Москва бандитская.wav

Пиковый уровень 65.4 %
Качество диапазона 99.9 %
CRC копии 8B3FA4E5
Копирование... OK

Ошибок не произошло

Конец отчёта



Спасибо сказали:
К началу страницы
 
+Цитировать сообщение

Ответ в темуСоздание новой темы
1 чел. читают эту тему (гостей: 1, скрытых пользователей: 0)
Пользователей: 0

 

Текстовая версия Сейчас: Пон, 27 Января 2020, 18:28


 
AiwanВs emoticons KOLOBOK-Style
Russian America Top. Рейтинг ресурсов Русской Америки.
Рейтинг Новостей Америки
Ozon.ru