IPB
Для читателей: поддержка сайта, к сожалению, требует не только сил и энергии, но и денег.
Если у Вас, вдруг, где-то завалялось немного лишних денег - поддержите портал







Здравствуйте, гость ( Вход | Регистрация )

 
Ответ в темуСоздание новой темы
> Виктор Чупретов - Слой памяти 2003, Lossless
Tomas Pisces
Сообщение #1


Пишу, но редко
Иконки Групп

Группа: Модератор
Сообщений: 164
Регистрация: 19 Сентября 2005
Из: Israel

 Израиль 

Пользователь №: 313
Спасибо сказали: 174 раз(а)




(IMG:http://s52.radikal.ru/i138/0908/32/66ebc48c4330.jpg)

Исполнитель Виктор Чупретов
Альбом Слой памяти 2003
Жанр Шансон
Содержание
01.Рассветы России
02.Кухонька
03.Бабье лето
04.Куст сиреневый
05.Машка
06.Ты пригласи меня
07.Натали
08.Жизнь и я
09.Слой памяти
10.Папа Гиляровский
11.Лето
12.Мама

Добавлена опция для восстановления 3%
EAC, FLAC, CUE, LOG, Covers
Сканы в архиве


(IMG:http://s61.radikal.ru/i171/0901/97/184ae46bc63c.gif)

Ссылка и пароль:
Для просмотра этого блока необходима регистрация


Цитата
Exact Audio Copy V0.99 prebeta 5 from 4. May 2009

Отчёт EAC об извлечении, выполненном 28. августа 2009, 20:48

Виктор Чупретов / Слой памяти

Дисковод: TSSTcorpCDDVDW SH-S223F Adapter: 2 ID: 0

Режим чтения : Достоверность
Использование точного потока : Да
Отключение кэша аудио : Да
Использование указателей C2 : Нет

Коррекция смещения при чтении : 6
Способность читать области Lead-in и Lead-out : Нет
Заполнение пропущенных сэмплов тишиной : Да
Удаление блоков с тишиной в начале и конце : Нет
При вычислениях CRC использовались нулевые сэмплы : Да
Интерфейс : Встроенный Win32-интерфейс для Win NT/2000

Выходной формат : Внутренние WAV-операции
Формат сэмплов : 44.100 Гц; 16 бит; стерео


TOC извлечённого CD

Трек | Старт | Длительность | Начальный сектор | Конечный сектор
---------------------------------------------------------------------
1 | 0:00.00 | 4:22.33 | 0 | 19682
2 | 4:22.33 | 4:02.25 | 19683 | 37857
3 | 8:24.58 | 3:50.62 | 37858 | 55169
4 | 12:15.45 | 3:22.70 | 55170 | 70389
5 | 15:38.40 | 3:43.42 | 70390 | 87156
6 | 19:22.07 | 2:20.04 | 87157 | 97660
7 | 21:42.11 | 3:08.11 | 97661 | 111771
8 | 24:50.22 | 3:28.44 | 111772 | 127415
9 | 28:18.66 | 3:58.37 | 127416 | 145302
10 | 32:17.28 | 3:40.60 | 145303 | 161862
11 | 35:58.13 | 3:20.57 | 161863 | 176919
12 | 39:18.70 | 5:03.65 | 176920 | 199709


Характеристики диапазона извлечения и сообщения об ошибках

Выбранный диапазон

Имя файла C:\Documents and Settings\Vladimir\Рабочий стол\Виктор Чупретов - Слой памяти 2003\Виктор Чупретов - Слой памяти.wav

Пиковый уровень 100.0 %
Качество диапазона 100.0 %
CRC копии 3704B81B
Копирование... OK

Ошибок не произошло

Конец отчёта


Спасибо сказали:
К началу страницы
 
+Цитировать сообщение

Ответ в темуСоздание новой темы
1 чел. читают эту тему (гостей: 1, скрытых пользователей: 0)
Пользователей: 0

 

Текстовая версия Сейчас: Пт, 15 Ноября 2019, 15:21


 
AiwanВs emoticons KOLOBOK-Style
Russian America Top. Рейтинг ресурсов Русской Америки.
Рейтинг Новостей Америки
Ozon.ru