IPB
Для читателей: поддержка сайта, к сожалению, требует не только сил и энергии, но и денег.
Если у Вас, вдруг, где-то завалялось немного лишних денег - поддержите портал







Здравствуйте, гость ( Вход | Регистрация )

 
Ответ в темуСоздание новой темы
> А.Марцинкевич и гр.Кабриолет - Неповторимая-2 2009, Lossless
Tomas Pisces
Сообщение #1


Пишу, но редко
Иконки Групп

Группа: Модератор
Сообщений: 164
Регистрация: 19 Сентября 2005
Из: Israel

 Израиль 

Пользователь №: 313
Спасибо сказали: 174 раз(а)




(IMG:http://i078.radikal.ru/0909/a7/a3f565232f80.jpg)

Исполнитель А.Марцинкевич и гр.Кабриолет
Альбом Неповторимая-2 2009
Жанр Шансон
Содержание
01.Кусаю руки
02юБелая роза
03.Ты мне подари судьба
04.Мама, еду я домой
05.Море любви
06.Вези меня карета
07.Госпожа игла
08.А я люблю такую
09.Завидую
10.А что цыгане делают
11.Трики-трики
12.Боже, боже
13.Береги любовь
14.Туман над рекою
15.Без любви
16.Ивушка Remix
17.Неповторимая-2
18.Всё для тебя

Добавлена опция для восстановления 3%
EAC, FLAC, CUE, LOG, Covers
Сканы в архиве


(IMG:http://s61.radikal.ru/i171/0901/97/184ae46bc63c.gif)

Ссылка и пароль:
Для просмотра этого блока необходима регистрация


Цитата
Exact Audio Copy V0.99 prebeta 5 from 4. May 2009

Отчёт EAC об извлечении, выполненном 9. сентября 2009, 7:48

А.Марцинкевич и гр.Кабриолет / Неповторимая-2

Дисковод: TSSTcorpCDDVDW SH-S223F Adapter: 2 ID: 0

Режим чтения : Достоверность
Использование точного потока : Да
Отключение кэша аудио : Да
Использование указателей C2 : Нет

Коррекция смещения при чтении : 6
Способность читать области Lead-in и Lead-out : Нет
Заполнение пропущенных сэмплов тишиной : Да
Удаление блоков с тишиной в начале и конце : Нет
При вычислениях CRC использовались нулевые сэмплы : Да
Интерфейс : Встроенный Win32-интерфейс для Win NT/2000

Выходной формат : Внутренние WAV-операции
Формат сэмплов : 44.100 Гц; 16 бит; стерео


TOC извлечённого CD

Трек | Старт | Длительность | Начальный сектор | Конечный сектор
---------------------------------------------------------------------
1 | 0:00.00 | 4:43.34 | 0 | 21258
2 | 4:43.34 | 4:09.56 | 21259 | 39989
3 | 8:53.15 | 4:03.67 | 39990 | 58281
4 | 12:57.07 | 5:40.43 | 58282 | 83824
5 | 18:37.50 | 5:51.74 | 83825 | 110223
6 | 24:29.49 | 4:32.55 | 110224 | 130678
7 | 29:02.29 | 4:20.25 | 130679 | 150203
8 | 33:22.54 | 4:58.68 | 150204 | 172621
9 | 38:21.47 | 3:53.31 | 172622 | 190127
10 | 42:15.03 | 3:07.55 | 190128 | 204207
11 | 45:22.58 | 3:08.22 | 204208 | 218329
12 | 48:31.05 | 5:31.74 | 218330 | 243228
13 | 54:03.04 | 3:45.30 | 243229 | 260133
14 | 57:48.34 | 4:20.14 | 260134 | 279647
15 | 62:08.48 | 4:28.34 | 279648 | 299781
16 | 66:37.07 | 4:22.68 | 299782 | 319499
17 | 71:00.00 | 4:39.52 | 319500 | 340476
18 | 75:39.52 | 3:16.38 | 340477 | 355214


Характеристики диапазона извлечения и сообщения об ошибках

Выбранный диапазон

Имя файла C:\Documents and Settings\Vladimir\Рабочий стол\А.Марцинкевич и гр.Кабриолет - Неповторимая-2 2009\А.Марцинкевич и гр.Кабриолет - Неповторимая-2.wav

Пиковый уровень 100.0 %
Качество диапазона 99.9 %
CRC копии 42DBE6DF
Копирование... OK

Ошибок не произошло

Конец отчёта




Спасибо сказали:
К началу страницы
 
+Цитировать сообщение

Ответ в темуСоздание новой темы
1 чел. читают эту тему (гостей: 1, скрытых пользователей: 0)
Пользователей: 0

 

Текстовая версия Сейчас: Чт, 17 Октября 2019, 20:44


 
AiwanВs emoticons KOLOBOK-Style
Russian America Top. Рейтинг ресурсов Русской Америки.
Рейтинг Новостей Америки
Ozon.ru